<?xml version="1.0" standalone="no"?>
<!DOCTYPE svg PUBLIC "-//W3C//DTD SVG 1.1//EN" "http://www.w3.org/Graphics/SVG/1.1/DTD/svg11.dtd" >
<svg xmlns="http://www.w3.org/2000/svg">
<metadata>
This is a custom SVG webfont generated by Font Squirrel.
Copyright   : Copyright c 2003 by This Font is designed by Ralph Oliver du Carrois All rights reserved
Foundry     : This Font is designed by Ralph Oliver du Carrois
</metadata>
<defs>
<font id="webfontB6AeCMH3" horiz-adv-x="1052" >
<font-face units-per-em="2048" ascent="1638" descent="-410" />
<missing-glyph horiz-adv-x="526" />
<glyph unicode=" "  horiz-adv-x="526" />
<glyph unicode="&#x09;" horiz-adv-x="526" />
<glyph unicode="&#xa0;" horiz-adv-x="526" />
<glyph unicode="!" horiz-adv-x="526" d="M162 0v199h205v-199h-205zM172 360v965h182v-965h-182z" />
<glyph unicode="&#x22;" horiz-adv-x="778" d="M158 1325h170l-17 -444h-137zM453 1325h170l-17 -444h-137z" />
<glyph unicode="#" d="M29 371v135h207l53 297h-180v135h204l68 387h160l-68 -387h195l67 387h160l-68 -387h195v-135h-219l-53 -297h192v-135h-215l-65 -371h-160l65 371h-196l-64 -371h-160l66 371h-184zM395 506h197l51 297h-197z" />
<glyph unicode="$" d="M84 993q0 156 99.5 243t258.5 107v185h150v-180q174 -12 295 -54l-66 -174q-131 59 -229 68v-432q78 -31 130 -57.5t108.5 -73.5t85 -118t28.5 -163q0 -326 -352 -373v-172h-150v164q-127 2 -352 62l66 174q51 -18 93 -36t93 -30t100 -12v485q-66 25 -104.5 42.5t-94 51 t-85 70.5t-52 94t-22.5 129zM287 993q0 -63 41 -104t116 -74v367q-157 -35 -157 -189zM590 141q152 45 151 199q0 123 -151 201v-400z" />
<glyph unicode="%" horiz-adv-x="1605" d="M100 997q0 350 277 351q158 0 217 -91.5t59 -259.5q0 -172 -60.5 -269t-217.5 -97q-156 0 -215.5 97t-59.5 269zM233 997q0 -135 27 -201.5t115 -66.5t117.5 67.5t29.5 200.5q0 131 -27.5 192.5t-117.5 61.5q-84 0 -114 -68.5t-30 -185.5zM346 0l741 1288h166l-743 -1288 h-164zM952 340q0 352 277 352q158 0 218 -92t60 -260q0 -170 -61.5 -267.5t-218.5 -97.5q-156 0 -215.5 96.5t-59.5 268.5zM1087 340q0 -68 4.5 -110t17.5 -81.5t43 -58t75 -18.5q88 0 117.5 67.5t29.5 200.5q0 131 -27.5 193.5t-117.5 62.5q-84 0 -113 -68.5t-29 -187.5z " />
<glyph unicode="&#x26;" d="M94 362q0 264 232 381q-4 4 -35 27l-44 33q-13 10 -39 36.5t-38 49t-23.5 56.5t-11.5 69q0 152 85 247t265 95q168 0 259.5 -82t91.5 -246q0 -197 -332 -336q-113 -47 -167 -122.5t-54 -202.5q0 -102 58 -179t185 -77q125 0 224 147v207h-197v131h377v-309q0 -61 14 -172 t14 -115h-167l-29 100q-37 -55 -108.5 -93t-143.5 -38q-178 0 -297 96t-119 297zM322 1016q0 -29 9 -54.5t27.5 -48t31.5 -37t38 -34t31 -25.5q86 37 139 86t53 127q0 184 -170 184q-159 1 -159 -198z" />
<glyph unicode="'" horiz-adv-x="526" d="M178 1325h170l-16 -444h-137z" />
<glyph unicode="(" horiz-adv-x="604" d="M115 520q0 266 46 432t161 373h165q-109 -199 -147.5 -371t-38.5 -434q0 -229 39 -398t158 -384h-166q-129 223 -173 386t-44 396z" />
<glyph unicode=")" horiz-adv-x="604" d="M109 -262q119 215 157.5 384t38.5 398q0 262 -39 434t-147 371h168q115 -207 161 -373t46 -432q0 -233 -44 -396t-174 -386h-167z" />
<glyph unicode="*" horiz-adv-x="839" d="M25 993l41 129l292 -110l17 12l-15 305h129l-16 -311l14 -8l293 108l37 -127l-301 -73l-2 -15l197 -254l-107 -76l-170 263h-16l-174 -263l-107 78l197 252l-4 15z" />
<glyph unicode="+" d="M90 373v145h354v359h164v-359h355v-145h-355v-373h-164v373h-354z" />
<glyph unicode="," horiz-adv-x="526" d="M57 -211l105 365h203l-166 -365h-142z" />
<glyph unicode="-" horiz-adv-x="692" d="M57 401v156h578v-156h-578z" />
<glyph unicode="." horiz-adv-x="526" d="M162 0v197h203v-197h-203z" />
<glyph unicode="/" horiz-adv-x="567" d="M-14 -23l436 1369h160l-435 -1369h-161z" />
<glyph unicode="0" d="M78 631q0 639 446 639q135 0 227.5 -47t139.5 -138.5t65.5 -198t18.5 -256t-18.5 -260t-65.5 -206.5t-139.5 -146.5t-229.5 -50.5q-135 0 -226 50.5t-137 146.5t-63.5 205.5t-17.5 261.5zM283 631q0 -100 3 -165t16 -137.5t39 -113.5t71 -67.5t110 -26.5q82 0 134.5 38 t76 116.5t30.5 156.5t7 199q0 98 -4 161.5t-17.5 131t-39 105.5t-72.5 62.5t-113 24.5q-78 0 -129 -39t-74.5 -115.5t-30.5 -150.5t-7 -180z" />
<glyph unicode="1" d="M231 997l308 246h196v-1245h-205v1040l-235 -194z" />
<glyph unicode="2" d="M88 168l112 90l141 116q52 44 134 119.5t129 133t83 126t36 124.5q0 131 -58.5 186t-168.5 55q-119 0 -310 -98l-63 170q131 49 207 65.5t170 16.5q188 0 309 -91t121 -296q0 -78 -44 -169t-98.5 -161t-147.5 -158t-144 -130l-140 -111h598v-156h-807z" />
<glyph unicode="3" d="M78 18l61 170q164 -68 305 -67q113 0 183.5 57.5t70.5 159.5q0 100 -53 155.5t-131 71t-207 15.5v147q188 0 274.5 40t86.5 167q0 184 -207 184q-111 0 -299 -92l-62 170q66 33 174.5 54.5t190.5 21.5q408 0 407 -334q0 -127 -77.5 -197.5t-198.5 -85.5q129 -20 218 -96 t89 -223q0 -102 -40 -177t-109.5 -115t-147.5 -58.5t-168 -18.5q-213 0 -360 51z" />
<glyph unicode="4" d="M47 496l553 747h211v-751h197v-156h-197v-336h-201v336h-495zM211 492h399v542z" />
<glyph unicode="5" d="M102 14l64 170q158 -63 311 -63q270 0 271 278q0 125 -57.5 185.5t-155.5 60.5q-53 0 -106.5 -15.5t-75.5 -26.5l-72 -40l-140 55v625h756v-153h-555v-326q121 39 205 39q188 0 294.5 -105.5t106.5 -302.5q0 -203 -132 -315.5t-341 -112.5q-230 0 -373 47z" />
<glyph unicode="6" d="M92 580q0 174 50.5 325.5t172 259t297.5 107.5q141 0 279 -37l-64 -170q-113 53 -204 53q-168 0 -254 -134t-86 -339q41 82 120.5 130t153.5 48q199 0 300 -114.5t101 -323.5q0 -178 -119.5 -298t-297.5 -120q-449 1 -449 613zM301 489q0 -209 60.5 -288.5t181.5 -79.5 q92 0 151.5 68.5t59.5 195.5q0 57 -7.5 100t-27 89.5t-64.5 71t-110 24.5q-174 -1 -244 -181z" />
<glyph unicode="7" d="M98 1087v154h756l66 -137l-453 -1104h-221l493 1087h-641z" />
<glyph unicode="8" d="M76 311q0 264 301 344q-18 10 -49 20.5t-68 35t-67.5 52.5t-52 75t-21.5 102q0 160 106.5 246t304.5 86q211 0 312.5 -79t101.5 -251q0 -86 -54 -154.5t-110.5 -96t-105.5 -38.5q150 -43 225.5 -125t75.5 -217q0 -344 -455 -344q-444 0 -444 344zM276 315 q0 -92 62.5 -144t181.5 -52q123 0 189.5 51t66.5 145q0 186 -250 267q-115 -37 -182.5 -95.5t-67.5 -171.5zM317 936q0 -82 62.5 -135t142.5 -78q88 25 157 79t69 134q0 94 -51.5 139t-166.5 45q-113 0 -163 -45t-50 -139z" />
<glyph unicode="9" d="M92 852q0 178 122 299t296 121q135 0 228 -51.5t139.5 -143.5t65 -191.5t18.5 -226.5q0 -129 -31 -247.5t-91.5 -220t-164 -163t-236.5 -61.5q-139 0 -276 37l63 170q113 -53 203 -53q168 0 255 134t87 339q-41 -82 -121 -130t-153 -48q-199 0 -301.5 113.5t-102.5 322.5 zM299 852q0 -57 7 -100t26.5 -88.5t63.5 -70t110 -24.5q176 0 246 181q0 209 -61.5 288.5t-182.5 79.5q-92 0 -150.5 -69.5t-58.5 -196.5z" />
<glyph unicode=":" horiz-adv-x="526" d="M162 0v197h203v-197h-203zM162 729v197h203v-197h-203z" />
<glyph unicode=";" horiz-adv-x="526" d="M57 -211l103 365h205l-166 -365h-142zM160 729v197h202v-197h-202z" />
<glyph unicode="&#x3c;" d="M82 381v205l889 325v-182l-705 -246l705 -241v-183z" />
<glyph unicode="=" d="M82 170v147h889v-147h-889zM82 524v148h889v-148h-889z" />
<glyph unicode="&#x3e;" d="M82 59v183l704 245l-704 242v182l889 -323v-203z" />
<glyph unicode="?" horiz-adv-x="890" d="M104 1284q176 61 334 62q78 0 138.5 -12.5t122 -44.5t95 -100.5t33.5 -170.5q0 -68 -34.5 -124t-83.5 -97l-98 -80q-48 -39 -82.5 -88t-34.5 -105v-176h-185v187q0 78 33 139t81 100l95 74q47 35 80 78t33 92q0 92 -44 131t-149 39q-57 0 -149 -22.5t-148 -49.5zM299 0 v199h205v-199h-205z" />
<glyph unicode="@" horiz-adv-x="1781" d="M166 655q0 338 221 516.5t567 178.5q115 0 226.5 -32t212 -96.5t162 -179t61.5 -262.5q0 -141 -51.5 -245.5t-142.5 -163t-200.5 -86t-240.5 -27.5q-215 0 -336 103.5t-121 295.5q0 170 106.5 281t307.5 111q109 0 201 -29v-354l55 4l53 -138l-274 -28v393q-16 10 -47 10 q-94 0 -156.5 -57t-62.5 -191q0 -80 26.5 -135t71.5 -81.5t88 -38t92 -11.5q215 0 331 83t116 302q0 119 -41 206t-112 134t-151.5 68.5t-173.5 21.5q-80 0 -157.5 -14t-160.5 -53t-144.5 -99.5t-101.5 -160t-40 -226.5q0 -129 40 -229t102.5 -159.5t146.5 -97.5t161 -51.5 t158 -13.5q197 0 435 70l63 -151q-221 -59 -504 -60q-358 0 -572 178t-214 514z" />
<glyph unicode="A" horiz-adv-x="1345" d="M63 0l539 1325h180l500 -1325h-225l-131 375h-508l-139 -375h-216zM475 528h399l-192 559z" />
<glyph unicode="B" horiz-adv-x="1234" d="M197 0v1325h415q211 0 329 -79t118 -277q0 -100 -58.5 -172t-152.5 -103q127 -23 199.5 -101.5t72.5 -211.5q0 -381 -440 -381h-483zM401 158h267q115 0 178 48t63 175q0 223 -264 223h-244v-446zM401 760h240q92 0 150.5 52t58.5 154.5t-55.5 151.5t-182.5 49h-211v-407 z" />
<glyph unicode="C" horiz-adv-x="1144" d="M125 662q0 145 29.5 263.5t96 217t184.5 153t282 54.5q178 0 336 -52l-66 -174q-158 68 -270 68q-381 0 -381 -528q0 -262 85 -402.5t284 -140.5q104 0 296 78l66 -174q-174 -61 -360 -62q-582 1 -582 699z" />
<glyph unicode="D" horiz-adv-x="1333" d="M197 0v1325h378q336 0 484.5 -150.5t148.5 -506.5q0 -358 -148.5 -513t-484.5 -155h-378zM401 158h193q203 0 303 114.5t100 393.5q0 154 -26.5 254t-84 153t-130 73.5t-181.5 20.5h-174v-1009z" />
<glyph unicode="E" horiz-adv-x="1144" d="M197 0v1325h759v-158h-555v-403h512v-158h-512v-448h574v-158h-778z" />
<glyph unicode="F" horiz-adv-x="1067" d="M197 0v1325h759v-160h-555v-409h531v-156h-531v-600h-204z" />
<glyph unicode="G" horiz-adv-x="1259" d="M125 664q0 322 146.5 504t455.5 182q123 0 320 -52l-66 -174q-156 68 -252 68q-195 0 -294 -124t-99 -404q0 -262 83 -402.5t296 -140.5q121 0 237 65v338h-293v158h476v-602q-113 -61 -205 -89t-221 -28q-584 1 -584 701z" />
<glyph unicode="H" horiz-adv-x="1372" d="M197 0v1325h204v-561h570v561h205v-1325h-205v604h-570v-604h-204z" />
<glyph unicode="I" horiz-adv-x="548" d="M172 0v1325h205v-1325h-205z" />
<glyph unicode="J" horiz-adv-x="862" d="M33 0q57 14 115.5 22.5t114.5 34t100.5 61.5t71 107.5t26.5 171.5v928h205v-907q0 -80 -13.5 -147.5t-42 -120t-59.5 -93.5t-79 -73.5t-87 -54t-98.5 -42t-96.5 -30.5l-96 -27q-6 -2 -8 -2z" />
<glyph unicode="K" horiz-adv-x="1277" d="M197 0v1325h204v-582l537 582h229l-577 -625l657 -700h-266l-580 623v-623h-204z" />
<glyph unicode="L" horiz-adv-x="993" d="M197 0v1325h204v-1161h578v-164h-782z" />
<glyph unicode="M" horiz-adv-x="1804" d="M197 0v1325h325l385 -1046l391 1046h310v-1325h-199v1108l-412 -1108h-194l-414 1108v-1108h-192z" />
<glyph unicode="N" horiz-adv-x="1435" d="M197 0v1325h299l542 -1083v1083h201v-1325h-303l-547 1083v-1083h-192z" />
<glyph unicode="O" horiz-adv-x="1439" d="M125 657q0 317 143.5 505t456.5 188q590 0 590 -693q0 -319 -140.5 -506.5t-451.5 -187.5q-598 0 -598 694zM336 657q0 -274 90 -405t297 -131t294 136t87 400q0 270 -89 402.5t-292 132.5q-205 0 -296 -132.5t-91 -402.5z" />
<glyph unicode="P" horiz-adv-x="1183" d="M197 0v1325h424q457 0 456 -387q0 -399 -434 -399h-242v-539h-204zM401 696h226q119 0 180 54.5t61 187.5q0 135 -64.5 182t-187.5 47h-215v-471z" />
<glyph unicode="Q" horiz-adv-x="1439" d="M125 657q0 317 142.5 505t457.5 188q590 0 590 -693q0 -319 -140.5 -506.5t-451.5 -187.5q-598 0 -598 694zM336 657q0 -274 90 -405t297 -131t294 136t87 400q0 270 -89 402.5t-292 132.5q-205 0 -296 -132.5t-91 -402.5zM655 -201l72 117l449 -41l-72 -143z" />
<glyph unicode="R" horiz-adv-x="1257" d="M197 0v1325h454q86 0 159 -17.5t138.5 -56.5t102 -113.5t36.5 -181.5q0 -154 -82.5 -257t-269.5 -121l432 -578h-247l-422 571h-97v-571h-204zM401 729h263q111 0 163 61.5t52 165.5q0 100 -55.5 155.5t-161.5 55.5h-261v-438z" />
<glyph unicode="S" horiz-adv-x="1171" d="M135 25l66 174q207 -78 313 -78q313 0 313 219q0 43 -19.5 80t-41 58.5t-72.5 48t-78.5 37.5t-95.5 36q-72 27 -112.5 44.5t-100 52t-91.5 71.5t-56.5 95.5t-24.5 129.5q0 123 70.5 206t174 117t232.5 34q180 0 342 -56l-65 -174l-59 25l-62 23q-31 11 -72 17.5t-86 6.5 q-266 0 -266 -199q0 -55 40 -97t84 -62.5t132 -51.5q6 -2 16 -6l121 -45t108.5 -54t101.5 -78t61.5 -106.5t27.5 -148.5q0 -381 -524 -381q-152 1 -377 62z" />
<glyph unicode="T" horiz-adv-x="1058" d="M49 1165v160h961v-160h-379v-1165h-203v1165h-379z" />
<glyph unicode="U" horiz-adv-x="1435" d="M197 489v836h204v-815q0 -225 81 -307t249 -82q152 0 227.5 90t75.5 299v815h205v-840q0 -522 -508 -522q-276 0 -405 129t-129 397z" />
<glyph unicode="V" horiz-adv-x="1286" d="M59 1325h226l372 -1065l355 1065h215l-482 -1325h-186z" />
<glyph unicode="W" horiz-adv-x="1890" d="M72 1325h215l252 -1069l301 1014h245l269 -1016l268 1071h197l-346 -1325h-248l-277 989l-311 -989h-248z" />
<glyph unicode="X" horiz-adv-x="1239" d="M63 0l443 684l-389 641h235l275 -463l291 463h219l-408 -629l434 -696h-243l-306 524l-331 -524h-220z" />
<glyph unicode="Y" horiz-adv-x="1208" d="M31 1325h231l354 -553l345 553h217l-467 -729v-596h-205v588z" />
<glyph unicode="Z" horiz-adv-x="1126" d="M90 168l725 997h-649v160h813l57 -168l-725 -997h709v-160h-873z" />
<glyph unicode="[" horiz-adv-x="591" d="M170 -260v1644h326v-133h-162v-1372h162v-139h-326z" />
<glyph unicode="\" horiz-adv-x="567" d="M-14 1346h159l437 -1369h-162z" />
<glyph unicode="]" horiz-adv-x="591" d="M109 -121h161v1374h-161v133h325v-1644h-325v137z" />
<glyph unicode="^" d="M70 551l370 774h166l379 -774h-178l-283 604l-282 -604h-172z" />
<glyph unicode="_" horiz-adv-x="1024" d="M-2 -84h1028v-139h-1028v139z" />
<glyph unicode="`" horiz-adv-x="466" d="M39 1325h192l197 -240h-135z" />
<glyph unicode="a" horiz-adv-x="1026" d="M92 246q0 158 113.5 245t394.5 87h84v59q0 182 -160 182q-158 0 -329 -82l-64 152q195 72 399 72q156 0 247 -76t91 -223v-375q0 -33 5.5 -78t14.5 -107.5t13 -101.5h-170q0 4 -16.5 51t-16.5 51q-109 -127 -254 -127q-164 0 -258 69t-94 202zM285 254q0 -68 51 -102.5 t137 -34.5q145 0 213 110v224h-57q-188 0 -266 -47.5t-78 -149.5z" />
<glyph unicode="b" horiz-adv-x="1046" d="M117 0q23 176 22 287v1059h183v-541q106 156 251 156q197 0 289 -136.5t92 -351.5t-104.5 -356.5t-302.5 -141.5q-78 0 -138.5 38t-93.5 89l-32 -102h-166zM317 254q29 -63 84.5 -100t120.5 -37q244 0 244 352q0 350 -217 350q-59 0 -109.5 -35.5t-73 -69.5t-49.5 -85 v-375z" />
<glyph unicode="c" horiz-adv-x="923" d="M92 461q0 236 110.5 368t334.5 132q59 0 155 -20.5t152 -43.5l-64 -152q-147 74 -245 74q-135 0 -194.5 -88t-59.5 -270q0 -344 251 -344q111 0 254 73l64 -151q-51 -25 -155.5 -44.5t-164.5 -19.5q-215 0 -326.5 131.5t-111.5 354.5z" />
<glyph unicode="d" horiz-adv-x="1046" d="M92 473q0 209 99.5 348.5t285.5 139.5q141 0 248 -156v541h182v-1059q0 -111 23 -287h-166l-33 102q-35 -53 -96.5 -90t-134.5 -37q-209 0 -308.5 139.5t-99.5 358.5zM281 469q0 -184 59 -268t184 -84q119 0 205 137v375q-94 190 -229 190q-219 0 -219 -350z" />
<glyph unicode="e" horiz-adv-x="1026" d="M92 459q0 90 19.5 172t64.5 159.5t130 124t202 46.5q238 0 330 -139.5t92 -424.5h-643q20 -285 248 -284q125 0 284 80l60 -144q-160 -74 -361 -74q-209 0 -317.5 137.5t-108.5 346.5zM285 535h467q-8 285 -242 284q-90 0 -153.5 -70.5t-71.5 -213.5z" />
<glyph unicode="f" horiz-adv-x="632" d="M27 795v141h141v63q0 94 41 169t106.5 118t134 67.5t136.5 28.5l47 -153q-283 -31 -283 -215v-78h213v-141h-213v-795h-182v795h-141z" />
<glyph unicode="g" horiz-adv-x="1067" d="M78 -147q0 125 174 184q-127 55 -127 168q0 74 100 157q-100 123 -100 248q0 39 8 79t35 91t67.5 89t115.5 65t173 27q82 0 158 -21q231 18 322 23l-52 -129h-123q39 -33 71 -94.5t32 -129.5q0 -147 -95.5 -251.5t-308.5 -104.5q-37 0 -104.5 11t-95.5 28 q-47 -43 -47 -80q0 -39 55 -59.5t225 -32.5q254 -20 345 -83t91 -179q0 -137 -131 -203t-325 -66q-250 0 -356.5 68t-106.5 195zM268 -141q0 -61 75 -98t198 -37q143 0 204.5 33.5t61.5 101.5q0 106 -430 125q-49 -16 -79 -52t-30 -73zM315 606.5q0 -104.5 56.5 -160 t158.5 -55.5q111 0 161 64.5t50 158.5q0 207 -213 207q-98 0 -155.5 -55t-57.5 -159.5z" />
<glyph unicode="h" horiz-adv-x="1042" d="M139 0v1346h183v-541q37 59 101 108.5t150 49.5q182 0 256 -98.5t74 -268.5v-596h-182v588q0 113 -35 172t-141 59q-139 0 -223 -186v-633h-183z" />
<glyph unicode="i" horiz-adv-x="466" d="M135 1145v180h197v-180h-197zM141 0v936h185v-936h-185z" />
<glyph unicode="j" horiz-adv-x="458" d="M-57 -211q106 23 148 68t42 137v942h182v-924q0 -279 -311 -377zM125 1145v180h199v-180h-199z" />
<glyph unicode="k" horiz-adv-x="950" d="M139 0v1346h183v-787l352 377h198l-380 -406l430 -530h-213l-387 479v-479h-183z" />
<glyph unicode="l" horiz-adv-x="460" d="M139 0v1346h183v-1346h-183z" />
<glyph unicode="m" horiz-adv-x="1617" d="M117 936h166l34 -133q39 57 107 108.5t145 51.5q117 0 180.5 -41t114.5 -129q45 72 119 121t168 49q328 0 328 -365v-598h-183v594q0 113 -37.5 169t-132.5 56q-80 0 -141 -58.5t-90 -137.5v-623h-182v594q0 121 -42 173t-132 52q-70 0 -130.5 -59.5t-86.5 -124.5v-635 h-183v721q0 45 -10 122z" />
<glyph unicode="n" horiz-adv-x="1042" d="M117 936h166l32 -131q10 16 36 42.5l53.5 52.5t72.5 44.5t94 18.5q184 0 258 -97.5t74 -275.5v-590h-182v592q0 109 -34 168t-142 59q-74 0 -131.5 -55t-91.5 -131v-633h-183v737q0 45 -10 112t-12 87z" />
<glyph unicode="o" horiz-adv-x="1058" d="M92 473q0 213 105.5 351.5t332.5 138.5q229 0 333 -134.5t104 -355.5q0 -223 -104.5 -361.5t-332.5 -138.5q-229 0 -333.5 138.5t-104.5 361.5zM281 473q0 -356 249 -356q248 0 248 356q0 176 -57 261t-191 85q-249 0 -249 -346z" />
<glyph unicode="p" horiz-adv-x="1046" d="M117 936h166l36 -131q106 158 242 158q139 0 230.5 -72t127 -179.5t35.5 -248.5q0 -211 -96 -350.5t-285 -139.5q-76 0 -144.5 36t-106.5 91v-469h-183v1022q1 115 -22 283zM319 254q86 -137 228 -137q219 0 219 350q0 182 -58.5 267t-183.5 85q-68 0 -121 -53t-84 -131 v-381z" />
<glyph unicode="q" horiz-adv-x="1046" d="M92 463q0 217 98.5 358.5t294.5 141.5q135 0 242 -158l37 131h166q-23 -168 -23 -283v-1022h-182v469q-41 -55 -107.5 -91t-142.5 -36q-197 0 -290 138.5t-93 351.5zM281 467q0 -350 219 -350q143 0 229 137v381q-31 76 -86 130t-123 54q-239 0 -239 -352z" />
<glyph unicode="r" horiz-adv-x="737" d="M117 936h166l32 -164q37 70 94.5 130.5t127.5 60.5q96 0 174 -48l-66 -153q-88 57 -141 57q-33 0 -60.5 -16.5t-47 -48t-32 -55t-26.5 -62.5t-16 -43v-594h-183v727q1 37 -22 209z" />
<glyph unicode="s" horiz-adv-x="886" d="M82 37l63 151l61 -23l54.5 -20.5t52 -15.5t54 -9t61.5 -3q98 0 138 34.5t40 100.5q0 31 -14 52.5t-52 41t-60.5 27.5t-84.5 28q-70 23 -109.5 39.5t-91 50t-76 83t-24.5 116.5q0 100 58.5 164t137.5 86.5t179 22.5q127 0 311 -62l-65 -153q-63 29 -88 39t-70 21t-92 11 q-182 0 -182 -123q0 -33 27.5 -57.5t57 -36.5t91.5 -33q25 -8 50.5 -15t51.5 -17l51 -21q25 -10 48.5 -24.5t44 -31t37 -38t28.5 -46t18.5 -56t6.5 -66.5q0 -143 -106.5 -212t-264.5 -69q-184 1 -342 64z" />
<glyph unicode="t" horiz-adv-x="638" d="M27 795v143h151v244h184v-244h218v-143h-218v-568q0 -176 252 -227l-63 -166q-168 41 -270.5 143.5t-102.5 253.5v564h-151z" />
<glyph unicode="u" horiz-adv-x="1028" d="M139 346v590h183v-592q0 -70 9 -114t49 -78.5t112 -34.5q131 0 215 186v633h182v-737q0 -45 10 -112t12 -87h-166l-32 131q-2 -4 -20.5 -26.5t-30 -35t-35 -33t-45 -32.5t-53 -21.5t-64.5 -9.5q-326 0 -326 373z" />
<glyph unicode="v" horiz-adv-x="1050" d="M78 936h196l258 -713l252 713h189l-361 -936h-172z" />
<glyph unicode="w" horiz-adv-x="1544" d="M70 936h194l219 -711l213 625h176l201 -623l217 709h185l-314 -936h-186l-199 616l-215 -616h-190z" />
<glyph unicode="x" horiz-adv-x="966" d="M49 0l338 473l-315 463h211l209 -326l217 326h192l-317 -449l334 -487h-211l-226 346l-237 -346h-195z" />
<glyph unicode="y" horiz-adv-x="1040" d="M78 936h196l269 -686l231 686h189l-392 -1086q-43 -121 -115.5 -194.5t-205.5 -120.5l-60 154q145 39 181 133l82 217z" />
<glyph unicode="z" horiz-adv-x="874" d="M63 152l541 643h-483v141h624l66 -152l-539 -643h510v-141h-655z" />
<glyph unicode="{" horiz-adv-x="765" d="M98 471v145q72 2 108 54.5t40 130.5t18.5 168t40 166.5t108.5 131t220 58.5v-145q-100 0 -148.5 -53.5t-57.5 -136.5t-14 -169t-40 -166t-111 -114q66 -25 102.5 -83.5t43 -128t14.5 -146.5t20.5 -138t59.5 -101t131 -40v-146q-102 2 -175 34t-107 81t-55.5 111.5 t-25.5 127t-13 128t-21.5 112.5t-46.5 82t-91 37z" />
<glyph unicode="|" horiz-adv-x="526" d="M184 -340v1778h158v-1778h-158z" />
<glyph unicode="}" horiz-adv-x="765" d="M131 -96q98 0 146.5 55t57.5 139t14 172t41 165t114 106q-76 35 -111 114.5t-40 165.5t-15 169t-58.5 136.5t-148.5 53.5v145q104 -4 178 -36t109 -81t57.5 -112.5t26.5 -128t13 -127t19.5 -111.5t44 -80t89.5 -33v-145q-57 -4 -91 -37t-46.5 -82t-21.5 -112.5t-13 -128 t-25.5 -127t-56.5 -111.5t-108 -81t-175 -34v146z" />
<glyph unicode="~" d="M55 399q0 104 70 170t188 66q78 0 160 -43t143.5 -85t90.5 -42q70 0 105.5 35t35.5 116l147 -79q0 -102 -71.5 -169t-190.5 -67q-76 0 -154.5 44t-141 87t-95.5 43q-70 0 -103.5 -34.5t-33.5 -118.5z" />
<glyph unicode="&#xa1;" horiz-adv-x="526" d="M162 1126v199h205v-199h-205zM172 0v965h182v-965h-182z" />
<glyph unicode="&#xa2;" horiz-adv-x="903" d="M92 461q0 211 88 340t269 153v191h151v-191q111 -14 223 -57l-63 -152q-92 45 -160 62v-680q78 18 166 63l63 -151q-74 -37 -229 -57v-187h-151v187q-176 25 -266.5 151.5t-90.5 327.5zM281 461q0 -279 168 -328v674q-168 -45 -168 -346z" />
<glyph unicode="&#xa3;" d="M94 645v146h150v32q0 127 35.5 223.5t87 151.5t135.5 94t152.5 54.5t166.5 29.5l56 -172q-35 -4 -71 -7t-70 -9t-65.5 -13.5t-60 -20.5t-53.5 -31.5t-45 -46t-34.5 -61.5t-21.5 -81t-7 -105v-38h331v-146h-331v-481h557v-164h-897v164h135v481h-150z" />
<glyph unicode="&#xa4;" d="M-2 455l49 157h150v50q0 6 -1 22t-1 23q0 4 1 11t1 11h-199l49 158h170q86 463 545 463q174 0 338 -54l-53 -172q-150 68 -285 68q-147 0 -225 -79t-109 -226h549l-49 -158h-520v-117h487l-49 -157h-424q25 -162 101.5 -248t226.5 -86q39 0 77.5 7t74.5 19.5t75 27.5 l78 32v-195q-147 -49 -303 -49q-467 0 -541 492h-213z" />
<glyph unicode="&#xa5;" d="M6 1325h227l304 -553l297 553h213l-383 -672h245v-143h-278v-125h278v-145h-278v-240h-205v240h-276v145h276v125h-276v143h241z" />
<glyph unicode="&#xa6;" horiz-adv-x="526" d="M182 -160v479h162v-479h-162zM182 735v479h162v-479h-162z" />
<glyph unicode="&#xa7;" horiz-adv-x="929" d="M96 680q0 156 127 217q-94 70 -94 180q0 145 107.5 209t265.5 64q115 0 284 -62l-63 -151q-39 18 -68.5 33.5t-68.5 25.5t-82 10q-184 0 -185 -123q0 -47 53.5 -77.5t129.5 -51t150.5 -50.5t128 -95.5t53.5 -163.5q0 -141 -119 -207q80 -66 80 -190q0 -143 -107.5 -212 t-265.5 -69q-150 0 -313 64l63 153q55 -29 119.5 -51t134.5 -22q98 0 138 34.5t40 100.5q0 53 -52 87t-127 54.5t-149.5 48t-127 89t-52.5 155.5zM285 684q0 -59 90 -97t186 -63q84 35 84 119q0 39 -20.5 66.5t-56.5 44t-82 33t-95 30.5q-106 -24 -106 -133z" />
<glyph unicode="&#xa8;" horiz-adv-x="466" d="M-12 1155v170h172v-170h-172zM305 1155v170h172v-170h-172z" />
<glyph unicode="&#xa9;" horiz-adv-x="1474" d="M51 663.5q0 288.5 199 486.5t487 198q293 0 489.5 -197t196.5 -487q0 -289 -198.5 -486.5t-487 -197.5t-487.5 197.5t-199 486zM172 664q0 -236 166 -406t399.5 -170t399.5 170t166 406q0 238 -164 406.5t-402 168.5q-240 0 -402.5 -167.5t-162.5 -407.5zM377 659 q0 184 86 298t278 114q115 0 207 -31l-41 -108q-96 41 -166 41q-233 0 -233 -311q0 -322 225 -322q68 0 185 47l38 -108q-109 -37 -221 -37q-358 -1 -358 417z" />
<glyph unicode="&#xaa;" d="M279 936q0 188 307 188h49v27q0 45 -20.5 67.5t-75.5 22.5q-104 0 -199 -43l-37 92q111 39 240 39q94 0 153.5 -42t59.5 -122v-207q0 -8 20 -157h-112q0 2 -10.5 27.5t-10.5 29.5q-68 -72 -151 -72q-98 0 -155.5 38t-57.5 112zM401 940q0 -66 107 -66q80 0 127 68v98h-33 q-113 0 -157 -22.5t-44 -77.5z" />
<glyph unicode="&#xab;" horiz-adv-x="792" d="M57 553l191 373h172l-199 -369l197 -369h-170zM375 553l190 373h174l-198 -369l196 -369h-172z" />
<glyph unicode="&#xac;" d="M51 561v146h940v-506h-164v360h-776z" />
<glyph unicode="&#xad;" horiz-adv-x="692" d="M57 401v156h578v-156h-578z" />
<glyph unicode="&#xae;" horiz-adv-x="1474" d="M51 663.5q0 288.5 199 486.5t487 198q293 0 489.5 -197t196.5 -487q0 -289 -198.5 -486.5t-487 -197.5t-487.5 197.5t-199 486zM172 664q0 -236 166 -406t399.5 -170t399.5 170t166 406q0 238 -164 406.5t-402 168.5q-240 0 -402.5 -167.5t-162.5 -407.5zM467 264v799 h278q113 0 191 -52.5t78 -172.5q0 -205 -217 -228l266 -346h-154l-262 342h-53v-342h-127zM594 705h160q131 0 131 133q0 123 -133 123h-158v-256z" />
<glyph unicode="&#xaf;" horiz-adv-x="466" d="M-18 1137v145h503v-145h-503z" />
<glyph unicode="&#xb0;" horiz-adv-x="839" d="M96 938q0 137 95.5 229.5t228.5 92.5t229 -92.5t96 -229.5q0 -135 -96 -225t-231 -90t-228.5 89t-93.5 226zM225 938q0 -80 57.5 -135t135.5 -55t136 56t58 134q0 86 -54 142.5t-138 56.5t-139.5 -56.5t-55.5 -142.5z" />
<glyph unicode="&#xb1;" d="M82 2v145h889v-145h-889zM90 496v145h354v236h164v-236h355v-145h-355v-250h-164v250h-354z" />
<glyph unicode="&#xb2;" horiz-adv-x="714" d="M92 750q20 16 83 60t106 78t94 79t78.5 87t27.5 79q0 70 -35.5 95t-105.5 25q-76 0 -188 -53l-37 105q131 45 227 45q115 0 194.5 -51.5t79.5 -163.5q0 -70 -65.5 -149t-145 -133t-145.5 -105h361v-97h-492z" />
<glyph unicode="&#xb3;" horiz-adv-x="714" d="M100 659l39 105q90 -37 183 -37q68 0 111.5 27.5t43.5 81.5q0 76 -59.5 101.5t-177.5 25.5v92q113 0 166 21.5t53 86.5q0 53 -33 71.5t-94 18.5q-63 0 -178 -51l-39 107q88 41 219 41q121 0 190.5 -47.5t69.5 -137.5q0 -70 -48 -108.5t-120 -46.5q78 -10 132 -52.5 t54 -123.5q0 -106 -87 -153.5t-208 -47.5q-133 -1 -217 26z" />
<glyph unicode="&#xb4;" horiz-adv-x="466" d="M39 1085l197 240h192l-256 -240h-133z" />
<glyph unicode="&#xb5;" d="M152 -369v1305h182v-592q0 -70 9 -114t49 -78.5t112 -34.5q121 0 215 207v612h182v-737q0 -45 10.5 -112t12.5 -87h-166l-33 131q-2 -4 -20.5 -26.5l-29.5 -35t-35 -33t-45.5 -32.5t-53 -21.5t-64.5 -9.5q-88 0 -143 45v-387h-182z" />
<glyph unicode="&#x3bc;" d="M152 -369v1305h182v-592q0 -70 9 -114t49 -78.5t112 -34.5q121 0 215 207v612h182v-737q0 -45 10.5 -112t12.5 -87h-166l-33 131q-2 -4 -20.5 -26.5l-29.5 -35t-35 -33t-45.5 -32.5t-53 -21.5t-64.5 -9.5q-88 0 -143 45v-387h-182z" />
<glyph unicode="&#xb6;" horiz-adv-x="1105" d="M123 952q0 63 14.5 119.5t52 118t119.5 98.5t199 37h516v-1710h-164v1565h-205q-98 0 -160.5 -62.5t-62.5 -179.5q0 -88 61.5 -153.5t139.5 -86.5v-1083h-162v967q-94 10 -164.5 48t-108.5 92t-56.5 111.5t-18.5 118.5z" />
<glyph unicode="&#xb7;" horiz-adv-x="526" d="M164 467v203h198v-203h-198z" />
<glyph unicode="&#xb8;" horiz-adv-x="466" d="M4 -391l41 133q131 -16 148 -16q98 0 98 71q0 39 -31 55.5t-133 16.5l43 162h149l-20 -86q70 0 107.5 -45t37.5 -99q0 -98 -69.5 -153.5t-171.5 -55.5q-80 1 -199 17z" />
<glyph unicode="&#xb9;" horiz-adv-x="714" d="M162 1190l182 135h123v-684h-133v561l-135 -106z" />
<glyph unicode="&#xba;" d="M260 1081q0 117 65.5 193t202.5 76q139 0 203 -74t64 -194.5t-64.5 -197.5t-202 -77t-203 76.5t-65.5 197.5zM381 1081q0 -188 147 -188q143 0 144 188q0 94 -34 137.5t-110 43.5q-147 -1 -147 -181z" />
<glyph unicode="&#xbb;" horiz-adv-x="792" d="M55 926h172l191 -373l-191 -365h-170l197 369zM373 926h174l190 -373l-190 -365h-172l196 369z" />
<glyph unicode="&#xbc;" horiz-adv-x="1605" d="M131 1190l184 135h109l14 -684h-135v561l-133 -106zM262 0l744 1288h163l-745 -1288h-162zM813 276l332 408h139v-408h109v-96h-109v-180h-133v180h-295zM924 276h227v281z" />
<glyph unicode="&#xbd;" horiz-adv-x="1605" d="M127 1190l182 135h123v-684h-133v561l-135 -106zM256 0l741 1288h166l-743 -1288h-164zM932 102l104 76l138.5 103.5t97.5 97t49 104.5q0 70 -36 94.5t-105 24.5q-74 0 -187 -53l-37 104q131 45 226 45q117 0 195.5 -50t78.5 -163q0 -53 -39 -112.5t-94 -105.5l-116 -93 q-60 -47 -105 -76h358v-98h-491z" />
<glyph unicode="&#xbe;" horiz-adv-x="1605" d="M98 659l37 105q90 -37 184 -37q68 0 112 27.5t44 81.5q0 76 -60.5 101.5t-178.5 25.5v92q113 0 167 21.5t54 86.5q0 53 -33 71.5t-96.5 18.5t-177.5 -51l-37 107q88 41 219 41q121 0 189.5 -46.5t68.5 -138.5q0 -70 -47 -108.5t-119 -46.5q78 -10 131 -52.5t53 -123.5 q0 -109 -87 -155t-206 -46q-133 -1 -217 26zM326 0l741 1288h166l-744 -1288h-163zM856 276l332 408h139v-408h109v-96h-109v-180h-133v180h-295zM967 276h227v281z" />
<glyph unicode="&#xbf;" horiz-adv-x="890" d="M104 307q0 68 35 124t83 97l97 80q49 39 84 88t35 105v176h187v-186q0 -78 -34 -139.5t-81 -100.5t-94 -74t-81 -78t-34 -92q0 -92 44 -131t149 -39q57 0 149 22.5t148 49.5l36 -168q-176 -61 -333 -61q-78 0 -138.5 12t-122 44t-95.5 100.5t-34 170.5zM428 1126v199h205 v-199h-205z" />
<glyph unicode="&#xc0;" horiz-adv-x="1345" d="M63 0l539 1325h180l500 -1325h-225l-131 375h-508l-139 -375h-216zM475 528h399l-192 559zM498 1649h184l205 -240h-135z" />
<glyph unicode="&#xc1;" horiz-adv-x="1345" d="M63 0l539 1325h180l500 -1325h-225l-131 375h-508l-139 -375h-216zM475 528h399l-192 559zM498 1407l196 240h193l-256 -240h-133z" />
<glyph unicode="&#xc2;" horiz-adv-x="1345" d="M63 0l539 1325h180l500 -1325h-225l-131 375h-508l-139 -375h-216zM426 1425l192 234h140l188 -234h-141l-117 140l-123 -140h-139zM475 528h399l-192 559z" />
<glyph unicode="&#xc3;" horiz-adv-x="1345" d="M63 0l539 1325h180l500 -1325h-225l-131 375h-508l-139 -375h-216zM391 1448q37 82 82 112.5t125 30.5q43 0 104.5 -42t90.5 -42q37 0 62.5 28t35.5 60l106 -47q-23 -68 -77 -109.5t-123 -41.5q-49 0 -110.5 43t-90.5 43q-76 0 -100 -84zM475 528h399l-192 559z" />
<glyph unicode="&#xc4;" horiz-adv-x="1345" d="M63 0l539 1325h180l500 -1325h-225l-131 375h-508l-139 -375h-216zM442 1399v170h172v-170h-172zM475 528h399l-192 559zM760 1399v170h172v-170h-172z" />
<glyph unicode="&#xc5;" horiz-adv-x="1345" d="M63 0l539 1325h180l500 -1325h-225l-131 375h-508l-139 -375h-216zM475 528h399l-192 559zM528 1542.5q0 69.5 49.5 118.5t121 49t120.5 -48t49 -120q0 -70 -49 -119t-121 -49q-70 0 -120 49.5t-50 119zM606 1544q0 -35 26.5 -63.5t65.5 -28.5q43 0 66.5 26.5t23.5 65.5 t-24.5 65.5t-65.5 26.5t-66.5 -27.5t-25.5 -64.5z" />
<glyph unicode="&#xc6;" horiz-adv-x="1933" d="M63 0l752 1325h930v-158h-690l71 -403h576v-158h-547l80 -448h528v-158h-706l-62 375h-495l-205 -375h-232zM582 528h391l-90 557z" />
<glyph unicode="&#xc7;" horiz-adv-x="1144" d="M125 662q0 145 29.5 263.5t96 218t184.5 154t282 54.5q172 0 336 -54l-66 -174q-158 68 -270 68q-381 0 -381 -528q0 -262 85 -402.5t284 -140.5q104 0 296 78l66 -174q-172 -61 -340 -64l-4 -16q70 0 109.5 -45t39.5 -99q0 -98 -70.5 -153.5t-172.5 -55.5q-80 0 -199 17 l41 133q115 -14 147 -14q98 0 99 69q0 39 -31 55.5t-133 16.5l29 104q-457 71 -457 689z" />
<glyph unicode="&#xc8;" horiz-adv-x="1144" d="M197 0v1325h759v-158h-555v-403h512v-158h-512v-448h574v-158h-778zM356 1649h193l196 -240h-135z" />
<glyph unicode="&#xc9;" horiz-adv-x="1144" d="M197 0v1325h759v-158h-555v-403h512v-158h-512v-448h574v-158h-778zM377 1386l196 240h193l-256 -240h-133z" />
<glyph unicode="&#xca;" horiz-adv-x="1144" d="M197 0v1325h759v-158h-555v-403h512v-158h-512v-448h574v-158h-778zM317 1413l193 234h139l189 -234h-142l-116 139l-123 -139h-140z" />
<glyph unicode="&#xcb;" horiz-adv-x="1144" d="M197 0v1325h759v-158h-555v-403h512v-158h-512v-448h574v-158h-778zM346 1399v170h172v-170h-172zM664 1399v170h172v-170h-172z" />
<glyph unicode="&#xcc;" horiz-adv-x="548" d="M45 1657h193l196 -240h-135zM172 0v1325h205v-1325h-205z" />
<glyph unicode="&#xcd;" horiz-adv-x="550" d="M90 1417l197 240h192l-256 -240h-133zM174 0v1325h205v-1325h-205z" />
<glyph unicode="&#xce;" horiz-adv-x="550" d="M14 1417l193 234h139l189 -234h-142l-117 139l-122 -139h-140zM172 0v1325h205v-1325h-205z" />
<glyph unicode="&#xcf;" horiz-adv-x="548" d="M31 1452v170h172v-170h-172zM172 0v1325h205v-1325h-205zM348 1452v170h172v-170h-172z" />
<glyph unicode="&#xd0;" horiz-adv-x="1333" d="M59 674v143h138v508h378q336 0 484.5 -150.5t148.5 -506.5q0 -358 -148.5 -513t-484.5 -155h-378v674h-138zM401 158h193q203 0 303 114.5t100 393.5q0 154 -26.5 254t-84 153t-130 73.5t-181.5 20.5h-174v-350h256v-143h-256v-516z" />
<glyph unicode="&#xd1;" horiz-adv-x="1435" d="M197 0v1325h299l542 -1083v1083h201v-1325h-303l-547 1083v-1083h-192zM403 1446q37 82 82 112.5t125 30.5q43 0 104.5 -42t90.5 -42q37 0 62.5 28t35.5 60l107 -47q-23 -68 -77 -109.5t-124 -41.5q-49 0 -110.5 43t-90.5 43q-76 0 -100 -84z" />
<glyph unicode="&#xd2;" horiz-adv-x="1439" d="M125 657q0 317 143.5 505t456.5 188q590 0 590 -693q0 -319 -140.5 -506.5t-451.5 -187.5q-598 0 -598 694zM336 657q0 -274 90 -405t297 -131t294 136t87 400q0 270 -89 402.5t-292 132.5q-205 0 -296 -132.5t-91 -402.5zM457 1649h192l197 -240h-135z" />
<glyph unicode="&#xd3;" horiz-adv-x="1439" d="M125 657q0 317 143.5 505t456.5 188q590 0 590 -693q0 -319 -140.5 -506.5t-451.5 -187.5q-598 0 -598 694zM336 657q0 -274 90 -405t297 -131t294 136t87 400q0 270 -89 402.5t-292 132.5q-205 0 -296 -132.5t-91 -402.5zM559 1407l197 240h192l-256 -240h-133z" />
<glyph unicode="&#xd4;" horiz-adv-x="1439" d="M125 657q0 317 143.5 505t456.5 188q590 0 590 -693q0 -319 -140.5 -506.5t-451.5 -187.5q-598 0 -598 694zM336 657q0 -274 90 -405t297 -131t294 136t87 400q0 270 -89 402.5t-292 132.5q-205 0 -296 -132.5t-91 -402.5zM459 1413l192 234h140l188 -234h-141l-117 139 l-123 -139h-139z" />
<glyph unicode="&#xd5;" horiz-adv-x="1439" d="M125 657q0 317 143.5 505t456.5 188q590 0 590 -693q0 -319 -140.5 -506.5t-451.5 -187.5q-598 0 -598 694zM336 657q0 -274 90 -405t297 -131t294 136t87 400q0 270 -89 402.5t-292 132.5q-205 0 -296 -132.5t-91 -402.5zM424 1446q37 82 82 112.5t125 30.5 q43 0 104.5 -42t89.5 -42q37 0 62.5 28t36.5 60l106 -47q-23 -68 -77 -109.5t-124 -41.5q-49 0 -110.5 43t-89.5 43q-76 0 -101 -84z" />
<glyph unicode="&#xd6;" horiz-adv-x="1439" d="M125 657q0 317 143.5 505t456.5 188q590 0 590 -693q0 -319 -140.5 -506.5t-451.5 -187.5q-598 0 -598 694zM336 657q0 -274 90 -405t297 -131t294 136t87 400q0 270 -89 402.5t-292 132.5q-205 0 -296 -132.5t-91 -402.5zM477 1397v170h172v-170h-172zM795 1397v170h172 v-170h-172z" />
<glyph unicode="&#xd7;" d="M96 172l318 317l-318 318l115 115l317 -318l318 318l115 -115l-318 -318l318 -317l-115 -115l-318 318l-317 -318z" />
<glyph unicode="&#xd8;" horiz-adv-x="1439" d="M33 -2l184 217q-92 162 -92 442q0 317 143.5 505t456.5 188q229 0 369 -107l155 184l135 -122l-167 -197q98 -168 98 -451q0 -319 -140.5 -506.5t-451.5 -187.5q-240 0 -383 117l-174 -205zM336 657q0 -168 31 -268l608 715q-92 88 -252 88q-205 0 -296 -132.5 t-91 -402.5zM459 217q90 -96 264 -96q207 0 294 136t87 400q0 170 -35 277z" />
<glyph unicode="&#xd9;" horiz-adv-x="1435" d="M197 489v836h204v-815q0 -225 81 -307t249 -82q152 0 227.5 90t75.5 299v815h205v-840q0 -522 -508 -522q-276 0 -405 129t-129 397zM465 1649h192l197 -240h-135z" />
<glyph unicode="&#xda;" horiz-adv-x="1435" d="M197 489v836h204v-815q0 -225 81 -307t249 -82q152 0 227.5 90t75.5 299v815h205v-840q0 -522 -508 -522q-276 0 -405 129t-129 397zM565 1389l197 239h192l-256 -239h-133z" />
<glyph unicode="&#xdb;" horiz-adv-x="1435" d="M197 489v836h204v-815q0 -225 81 -307t249 -82q152 0 227.5 90t75.5 299v815h205v-840q0 -522 -508 -522q-276 0 -405 129t-129 397zM457 1413l192 234h139l189 -234h-141l-117 139l-123 -139h-139z" />
<glyph unicode="&#xdc;" horiz-adv-x="1435" d="M197 489v836h204v-815q0 -225 81 -307t249 -82q152 0 227.5 90t75.5 299v815h205v-840q0 -522 -508 -522q-276 0 -405 129t-129 397zM483 1399v170h172v-170h-172zM801 1399v170h172v-170h-172z" />
<glyph unicode="&#xdd;" horiz-adv-x="1208" d="M31 1325h231l354 -553l345 553h217l-467 -729v-596h-205v588zM387 1417l197 240h192l-256 -240h-133z" />
<glyph unicode="&#xde;" horiz-adv-x="1183" d="M197 0v1325h204v-252h220q457 0 456 -387q0 -399 -434 -399h-242v-287h-204zM401 444h226q119 0 180 54.5t61 187.5q0 135 -64.5 182t-187.5 47h-215v-471z" />
<glyph unicode="&#xdf;" horiz-adv-x="1056" d="M139 0v965q0 381 342 381q150 0 252.5 -73t102.5 -235q0 -49 -16.5 -95t-37 -76.5t-54.5 -61.5t-55.5 -46.5t-53 -34.5t-35.5 -22q8 -4 47 -18t58.5 -23.5l60.5 -31t64.5 -41t55 -53t49 -70.5t30 -87t12.5 -108q0 -96 -33 -171.5t-85 -123t-125 -78t-147.5 -43 t-156.5 -12.5l61 158q139 0 219 71.5t80 202.5q0 86 -33.5 149.5t-97 102.5t-104.5 55.5t-105 34.5v146l64 43q20 14 64 54t65.5 86t21.5 99q0 78 -50 119t-118 41q-80 0 -119.5 -47t-39.5 -170v-987h-183z" />
<glyph unicode="&#xe0;" horiz-adv-x="1026" d="M92 246q0 158 113.5 245t394.5 87h84v59q0 182 -160 182q-158 0 -329 -82l-64 152q195 72 399 72q156 0 247 -76t91 -223v-375q0 -33 5.5 -78t14.5 -107.5t13 -101.5h-170q0 4 -16.5 51t-16.5 51q-109 -127 -254 -127q-164 0 -258 69t-94 202zM225 1325h193l196 -240 h-135zM285 254q0 -68 51 -102.5t137 -34.5q145 0 213 110v224h-57q-188 0 -266 -47.5t-78 -149.5z" />
<glyph unicode="&#xe1;" horiz-adv-x="1026" d="M92 246q0 158 113.5 245t394.5 87h84v59q0 182 -160 182q-158 0 -329 -82l-64 152q195 72 399 72q156 0 247 -76t91 -223v-375q0 -33 5.5 -78t14.5 -107.5t13 -101.5h-170q0 4 -16.5 51t-16.5 51q-109 -127 -254 -127q-164 0 -258 69t-94 202zM285 254q0 -68 51 -102.5 t137 -34.5q145 0 213 110v224h-57q-188 0 -266 -47.5t-78 -149.5zM332 1085l196 240h193l-256 -240h-133z" />
<glyph unicode="&#xe2;" horiz-adv-x="1026" d="M92 246q0 158 113.5 245t394.5 87h84v59q0 182 -160 182q-158 0 -329 -82l-64 152q195 72 399 72q156 0 247 -76t91 -223v-375q0 -33 5.5 -78t14.5 -107.5t13 -101.5h-170q0 4 -16.5 51t-16.5 51q-109 -127 -254 -127q-164 0 -258 69t-94 202zM219 1092l193 233h139 l188 -233h-141l-117 139l-123 -139h-139zM285 254q0 -68 51 -102.5t137 -34.5q145 0 213 110v224h-57q-188 0 -266 -47.5t-78 -149.5z" />
<glyph unicode="&#xe3;" horiz-adv-x="1026" d="M92 246q0 158 113.5 245t394.5 87h84v59q0 182 -160 182q-158 0 -329 -82l-64 152q195 72 399 72q156 0 247 -76t91 -223v-375q0 -33 5.5 -78t14.5 -107.5t13 -101.5h-170q0 4 -16.5 51t-16.5 51q-109 -127 -254 -127q-164 0 -258 69t-94 202zM180 1128q37 82 82 113 t125 31q43 0 104.5 -42t90.5 -42q63 0 104 88l100 -47q-23 -68 -77 -110t-123 -42q-49 0 -110.5 43t-90.5 43q-76 0 -100 -84zM285 254q0 -68 51 -102.5t137 -34.5q145 0 213 110v224h-57q-188 0 -266 -47.5t-78 -149.5z" />
<glyph unicode="&#xe4;" horiz-adv-x="1026" d="M92 246q0 158 113.5 245t394.5 87h84v59q0 182 -160 182q-158 0 -329 -82l-64 152q195 72 399 72q156 0 247 -76t91 -223v-375q0 -33 5.5 -78t14.5 -107.5t13 -101.5h-170q0 4 -16.5 51t-16.5 51q-109 -127 -254 -127q-164 0 -258 69t-94 202zM258 1096v182h172v-182 h-172zM285 254q0 -68 51 -102.5t137 -34.5q145 0 213 110v224h-57q-188 0 -266 -47.5t-78 -149.5zM578 1096v182h174v-182h-174z" />
<glyph unicode="&#xe5;" horiz-adv-x="1026" d="M92 246q0 158 113.5 245t394.5 87h84v59q0 182 -160 182q-158 0 -329 -82l-64 152q195 72 399 72q156 0 247 -76t91 -223v-375q0 -33 5.5 -78t14.5 -107.5t13 -101.5h-170q0 4 -16.5 51t-16.5 51q-109 -127 -254 -127q-164 0 -258 69t-94 202zM285 254q0 -68 51 -102.5 t137 -34.5q145 0 213 110v224h-57q-188 0 -266 -47.5t-78 -149.5zM322 1206.5q0 69.5 49 118.5t120.5 49t121 -48t49.5 -120q0 -70 -49.5 -119t-120.5 -49q-70 0 -120 49.5t-50 119zM399 1208q0 -35 27 -63.5t66 -28.5q43 0 66.5 26.5t23.5 65.5t-25 65.5t-65.5 26.5 t-66.5 -27.5t-26 -64.5z" />
<glyph unicode="&#xe6;" horiz-adv-x="1611" d="M92 246q0 158 113.5 245t394.5 87h86v59q0 182 -162 182q-158 0 -329 -82l-64 152q195 72 399 72q195 0 279 -134q106 133 283 134q238 0 331 -140.5t93 -423.5h-646q20 -285 248 -284q125 0 285 80l59 -144q-160 -74 -360 -74q-121 0 -208 50.5t-122 128.5 q-137 -178 -328 -179q-164 0 -258 69t-94 202zM285 254q0 -68 51 -102.5t137 -34.5q68 0 125 40t90 93v192h-59q-190 0 -267 -43t-77 -145zM870 535h461q-8 285 -237 284q-90 0 -153 -69.5t-71 -214.5z" />
<glyph unicode="&#xe7;" horiz-adv-x="903" d="M92 461q0 233 112.5 365t332.5 132q129 0 276 -57l-55 -158q-125 74 -223 74q-133 0 -193.5 -87t-60.5 -269q0 -166 64.5 -254t186.5 -88q96 0 234 76l53 -160q-92 -41 -246 -58l-8 -36q70 0 108 -44t38 -96q0 -94 -70 -151.5t-170 -57.5q-80 0 -199 17l33 127 q115 -14 156 -15q43 0 73.5 18.5t30.5 57.5t-33.5 55.5t-136.5 16.5l31 117q-162 31 -248 156.5t-86 318.5z" />
<glyph unicode="&#xe8;" horiz-adv-x="1026" d="M92 459q0 90 19.5 172t64.5 159.5t130 124t202 46.5q238 0 330 -139.5t92 -424.5h-643q20 -285 248 -284q125 0 284 80l60 -144q-160 -74 -361 -74q-209 0 -317.5 137.5t-108.5 346.5zM252 1325h192l197 -240h-135zM285 535h467q-8 285 -242 284q-90 0 -153.5 -70.5 t-71.5 -213.5z" />
<glyph unicode="&#xe9;" horiz-adv-x="1026" d="M92 459q0 90 19.5 172t64.5 159.5t130 124t202 46.5q238 0 330 -139.5t92 -424.5h-643q20 -285 248 -284q125 0 284 80l60 -144q-160 -74 -361 -74q-209 0 -317.5 137.5t-108.5 346.5zM285 535h467q-8 285 -242 284q-90 0 -153.5 -70.5t-71.5 -213.5zM360 1085l197 240 h193l-256 -240h-134z" />
<glyph unicode="&#xea;" horiz-adv-x="1026" d="M92 459q0 90 19.5 172t64.5 159.5t130 124t202 46.5q238 0 330 -139.5t92 -424.5h-643q20 -285 248 -284q125 0 284 80l60 -144q-160 -74 -361 -74q-209 0 -317.5 137.5t-108.5 346.5zM260 1092l193 233h139l188 -233h-141l-117 139l-123 -139h-139zM285 535h467 q-8 285 -242 284q-90 0 -153.5 -70.5t-71.5 -213.5z" />
<glyph unicode="&#xeb;" horiz-adv-x="1026" d="M92 459q0 90 19.5 172t64.5 159.5t130 124t202 46.5q238 0 330 -139.5t92 -424.5h-643q20 -285 248 -284q125 0 284 80l60 -144q-160 -74 -361 -74q-209 0 -317.5 137.5t-108.5 346.5zM283 1114v170h172v-170h-172zM285 535h467q-8 285 -242 284q-90 0 -153.5 -70.5 t-71.5 -213.5zM600 1114v170h172v-170h-172z" />
<glyph unicode="&#xec;" horiz-adv-x="466" d="M18 1325h193l197 -240h-136zM141 0v936h185v-936h-185z" />
<glyph unicode="&#xed;" horiz-adv-x="466" d="M39 1085l197 240h192l-256 -240h-133zM141 0v936h185v-936h-185z" />
<glyph unicode="&#xee;" horiz-adv-x="466" d="M-16 1092l192 233h139l189 -233h-142l-116 139l-123 -139h-139zM139 0v936h185v-936h-185z" />
<glyph unicode="&#xef;" horiz-adv-x="466" d="M-12 1153v170h172v-170h-172zM141 0v936h185v-936h-185zM305 1153v170h172v-170h-172z" />
<glyph unicode="&#xf0;" d="M92 385q0 209 102.5 323.5t301.5 114.5q74 0 153.5 -48t120.5 -130q0 336 -219 461l-168 -113l-135 78l139 96q-39 10 -172 25l-65 174q240 -16 403 -86l141 98l133 -78l-137 -94q270 -188 271 -626q0 -612 -451 -613q-178 0 -298 120t-120 298zM299 385 q0 -127 58.5 -195.5t150.5 -68.5q121 0 182.5 80t61.5 288q-70 180 -246 181q-66 0 -110 -24.5t-63.5 -71t-26.5 -89.5t-7 -100z" />
<glyph unicode="&#xf1;" horiz-adv-x="1042" d="M117 936h166l32 -131q10 16 36 42.5l53.5 52.5t72.5 44.5t94 18.5q184 0 258 -97.5t74 -275.5v-590h-182v592q0 109 -34 168t-142 59q-74 0 -131.5 -55t-91.5 -131v-633h-183v737q0 45 -10 112t-12 87zM217 1128q37 82 82 113t125 31q43 0 104.5 -42t89.5 -42 q66 0 103 88l102 -47q-23 -68 -77 -110t-123 -42q-49 0 -110.5 43t-90.5 43q-76 0 -100 -84z" />
<glyph unicode="&#xf2;" horiz-adv-x="1058" d="M92 473q0 213 105.5 351.5t332.5 138.5q229 0 333 -134.5t104 -355.5q0 -223 -104.5 -361.5t-332.5 -138.5q-229 0 -333.5 138.5t-104.5 361.5zM281 473q0 -356 249 -356q248 0 248 356q0 176 -57 261t-191 85q-249 0 -249 -346zM297 1325h192l197 -240h-135z" />
<glyph unicode="&#xf3;" horiz-adv-x="1058" d="M92 473q0 213 105.5 351.5t332.5 138.5q229 0 333 -134.5t104 -355.5q0 -223 -104.5 -361.5t-332.5 -138.5q-229 0 -333.5 138.5t-104.5 361.5zM281 473q0 -356 249 -356q248 0 248 356q0 176 -57 261t-191 85q-249 0 -249 -346zM365 1085l196 240h193l-256 -240h-133z " />
<glyph unicode="&#xf4;" horiz-adv-x="1058" d="M92 473q0 213 105.5 351.5t332.5 138.5q229 0 333 -134.5t104 -355.5q0 -223 -104.5 -361.5t-332.5 -138.5q-229 0 -333.5 138.5t-104.5 361.5zM272 1092l193 233h139l189 -233h-142l-116 139l-123 -139h-140zM281 473q0 -356 249 -356q248 0 248 356q0 176 -57 261 t-191 85q-249 0 -249 -346z" />
<glyph unicode="&#xf5;" horiz-adv-x="1058" d="M92 473q0 213 105.5 351.5t332.5 138.5q229 0 333 -134.5t104 -355.5q0 -223 -104.5 -361.5t-332.5 -138.5q-229 0 -333.5 138.5t-104.5 361.5zM209 1128q37 82 82 113t125 31q43 0 104.5 -42t89.5 -42q37 0 62.5 27.5t36.5 60.5l106 -47q-23 -68 -77 -110t-124 -42 q-49 0 -110.5 43t-89.5 43q-76 0 -101 -84zM281 473q0 -356 249 -356q248 0 248 356q0 176 -57 261t-191 85q-249 0 -249 -346z" />
<glyph unicode="&#xf6;" horiz-adv-x="1058" d="M92 473q0 213 105.5 351.5t332.5 138.5q229 0 333 -134.5t104 -355.5q0 -223 -104.5 -361.5t-332.5 -138.5q-229 0 -333.5 138.5t-104.5 361.5zM281 473q0 -356 249 -356q248 0 248 356q0 176 -57 261t-191 85q-249 0 -249 -346zM285 1114v170h172v-170h-172zM602 1114 v170h172v-170h-172z" />
<glyph unicode="&#xf7;" d="M82 383v133h889v-133h-889zM426 25v196h203v-196h-203zM426 688v197h203v-197h-203z" />
<glyph unicode="&#xf8;" horiz-adv-x="1058" d="M31 53l121 131q-59 119 -60 289q0 213 105.5 351.5t332.5 138.5q162 0 265 -80l108 118l125 -120l-117 -127q55 -113 56 -281q0 -223 -104.5 -361.5t-332.5 -138.5q-162 0 -266 78l-110 -119zM281 473q0 -78 14 -133l391 424q-55 55 -156 55q-249 0 -249 -346zM375 172 q59 -55 155 -55q248 0 248 356q0 80 -10 125z" />
<glyph unicode="&#xf9;" horiz-adv-x="1028" d="M139 346v590h183v-592q0 -70 9 -114t49 -78.5t112 -34.5q131 0 215 186v633h182v-737q0 -45 10 -112t12 -87h-166l-32 131q-2 -4 -20.5 -26.5t-30 -35t-35 -33t-45 -32.5t-53 -21.5t-64.5 -9.5q-326 0 -326 373zM270 1325h193l196 -240h-135z" />
<glyph unicode="&#xfa;" horiz-adv-x="1028" d="M139 346v590h183v-592q0 -70 9 -114t49 -78.5t112 -34.5q131 0 215 186v633h182v-737q0 -45 10 -112t12 -87h-166l-32 131q-2 -4 -20.5 -26.5t-30 -35t-35 -33t-45 -32.5t-53 -21.5t-64.5 -9.5q-326 0 -326 373zM346 1085l197 240h192l-256 -240h-133z" />
<glyph unicode="&#xfb;" horiz-adv-x="1028" d="M139 346v590h183v-592q0 -70 9 -114t49 -78.5t112 -34.5q131 0 215 186v633h182v-737q0 -45 10 -112t12 -87h-166l-32 131q-2 -4 -20.5 -26.5t-30 -35t-35 -33t-45 -32.5t-53 -21.5t-64.5 -9.5q-326 0 -326 373zM252 1092l192 233h140l188 -233h-141l-117 139l-123 -139 h-139z" />
<glyph unicode="&#xfc;" horiz-adv-x="1028" d="M139 346v590h183v-592q0 -70 9 -114t49 -78.5t112 -34.5q131 0 215 186v633h182v-737q0 -45 10 -112t12 -87h-166l-32 131q-2 -4 -20.5 -26.5t-30 -35t-35 -33t-45 -32.5t-53 -21.5t-64.5 -9.5q-326 0 -326 373zM268 1114v170h172v-170h-172zM586 1114v170h159l13 -170 h-172z" />
<glyph unicode="&#xfd;" horiz-adv-x="1040" d="M78 936h196l269 -686l231 686h189l-392 -1086q-43 -121 -115.5 -194.5t-205.5 -120.5l-60 154q145 39 181 133l82 217zM338 1085l197 240h192l-256 -240h-133z" />
<glyph unicode="&#xfe;" horiz-adv-x="1046" d="M117 -365q23 176 22 652v1059h183v-541q106 156 251 156q197 0 289 -136.5t92 -351.5t-104.5 -356.5t-302.5 -141.5q-78 0 -138.5 38t-93.5 89l-32 -467h-166zM317 254q29 -63 84.5 -100t120.5 -37q244 0 244 352q0 350 -217 350q-59 0 -109.5 -35.5t-73 -69.5t-49.5 -85 v-375z" />
<glyph unicode="&#xff;" horiz-adv-x="1040" d="M78 936h196l269 -686l231 686h189l-392 -1086q-43 -121 -115.5 -194.5t-205.5 -120.5l-60 154q145 39 181 133l82 217zM295 1120v170h172v-170h-172zM612 1120v170h172v-170h-172z" />
<glyph unicode="&#x152;" horiz-adv-x="1998" d="M125 657q0 317 143.5 505t456.5 188q111 0 199 -25h886v-158h-651q113 -127 131 -403h477v-158h-475q-6 -295 -131 -448h668v-158h-873q-100 -37 -233 -37q-598 0 -598 694zM336 657q0 -274 90 -405t297 -131q201 0 280.5 134t79.5 402q0 274 -80.5 404.5t-279.5 130.5 q-205 0 -296 -132.5t-91 -402.5z" />
<glyph unicode="&#x153;" horiz-adv-x="1703" d="M92 473q0 213 105.5 351.5t332.5 138.5q240 0 342 -170q100 168 314 168q238 0 330 -139.5t92 -424.5h-643q20 -285 247 -284q125 0 285 80l59 -144q-160 -74 -360 -74q-217 0 -324 172q-106 -174 -342 -174q-229 0 -333.5 138.5t-104.5 361.5zM281 473q0 -356 249 -356 q248 0 248 356q0 176 -57 261t-191 85q-249 0 -249 -346zM963 535h462q-8 285 -237 284q-90 0 -153.5 -70.5t-71.5 -213.5z" />
<glyph unicode="&#x178;" horiz-adv-x="1208" d="M31 1325h231l354 -553l345 553h217l-467 -729v-596h-205v588zM381 1470v172h170v-172h-170zM694 1470v172h168v-172h-168z" />
<glyph unicode="&#x2c6;" horiz-adv-x="466" d="M-27 1092l193 233h139l189 -233h-142l-116 139l-123 -139h-140z" />
<glyph unicode="&#x2dc;" horiz-adv-x="466" d="M-70 1128q37 82 82 113t125 31q43 0 104.5 -42t90.5 -42q37 0 62.5 27.5t35.5 60.5l107 -47q-23 -68 -77 -110t-124 -42q-49 0 -110.5 43t-90.5 43q-76 0 -100 -84z" />
<glyph unicode="&#x2000;" horiz-adv-x="854" />
<glyph unicode="&#x2001;" horiz-adv-x="1710" />
<glyph unicode="&#x2002;" horiz-adv-x="854" />
<glyph unicode="&#x2003;" horiz-adv-x="1710" />
<glyph unicode="&#x2004;" horiz-adv-x="569" />
<glyph unicode="&#x2005;" horiz-adv-x="425" />
<glyph unicode="&#x2006;" horiz-adv-x="284" />
<glyph unicode="&#x2007;" horiz-adv-x="284" />
<glyph unicode="&#x2008;" horiz-adv-x="212" />
<glyph unicode="&#x2009;" horiz-adv-x="342" />
<glyph unicode="&#x200a;" horiz-adv-x="94" />
<glyph unicode="&#x2010;" horiz-adv-x="692" d="M57 401v156h578v-156h-578z" />
<glyph unicode="&#x2011;" horiz-adv-x="692" d="M57 401v156h578v-156h-578z" />
<glyph unicode="&#x2012;" horiz-adv-x="692" d="M57 401v156h578v-156h-578z" />
<glyph unicode="&#x2013;" horiz-adv-x="1024" d="M-2 416v147h1028v-147h-1028z" />
<glyph unicode="&#x2014;" horiz-adv-x="2048" d="M-2 403v160h2052v-160h-2052z" />
<glyph unicode="&#x2018;" horiz-adv-x="526" d="M92 942l203 385h129l-174 -385h-158z" />
<glyph unicode="&#x2019;" horiz-adv-x="526" d="M96 942l172 385h158l-199 -385h-131z" />
<glyph unicode="&#x201a;" horiz-adv-x="526" d="M96 -180l172 385h158l-199 -385h-131z" />
<glyph unicode="&#x201c;" horiz-adv-x="792" d="M82 942l203 385h129l-174 -385h-158zM379 942l201 385h131l-174 -385h-158z" />
<glyph unicode="&#x201d;" horiz-adv-x="792" d="M82 942l174 385h158l-201 -385h-131zM377 942l174 385h160l-203 -385h-131z" />
<glyph unicode="&#x201e;" horiz-adv-x="792" d="M82 -180l174 385h158l-201 -385h-131zM377 -180l174 385h160l-203 -385h-131z" />
<glyph unicode="&#x2022;" d="M250 664q0 117 81 196.5t195 79.5q117 0 197 -80t80 -196.5t-80 -197.5t-197 -81q-119 0 -197.5 80t-78.5 199z" />
<glyph unicode="&#x2026;" horiz-adv-x="1576" d="M162 0v197h203v-197h-203zM688 0v197h203v-197h-203zM1214 0v197h201v-197h-201z" />
<glyph unicode="&#x202f;" horiz-adv-x="342" />
<glyph unicode="&#x2039;" horiz-adv-x="526" d="M86 553l190 373h173l-199 -369l196 -369h-170z" />
<glyph unicode="&#x203a;" horiz-adv-x="526" d="M92 926h172l191 -373l-191 -365h-170l197 369z" />
<glyph unicode="&#x205f;" horiz-adv-x="425" />
<glyph unicode="&#x2122;" horiz-adv-x="1871" d="M154 1233v92h575v-92h-225v-637h-125v637h-225zM827 596v729h199l231 -571l234 571h188v-729h-120v606l-248 -606h-117l-248 606v-606h-119z" />
<glyph unicode="&#xe000;" horiz-adv-x="935" d="M0 935h935v-935h-935v935z" />
<glyph unicode="&#xfb01;" horiz-adv-x="1011" d="M27 795v141h141v63q0 90 32.5 158t89 108t112 62.5t118.5 34.5l62 -154q-121 -20 -176.5 -62t-55.5 -132v-78h172v-141h-172v-795h-182v795h-141zM682 1145v180h195v-180h-195zM688 0v936h182v-936h-182z" />
<glyph unicode="&#xfb02;" horiz-adv-x="1011" d="M27 795v141h141v63q0 90 32.5 158t89 108t112 62.5t118.5 34.5l62 -154q-121 -20 -176.5 -62t-55.5 -132v-78h172v-141h-172v-795h-182v795h-141zM692 0v1346h182v-1346h-182z" />
<glyph unicode="&#xfb03;" horiz-adv-x="1732" d="M1401 1145v180h197v-180h-197zM1407 0v936h185v-936h-185zM660 795v141h141v63q0 94 41 169t106.5 118t134 67.5t136.5 28.5l47 -153q-283 -31 -283 -215v-78h213v-141h-213v-795h-182v795h-141zM27 795v141h141v63q0 94 41 169t106.5 118t134 67.5t136.5 28.5l47 -153 q-283 -31 -283 -215v-78h213v-141h-213v-795h-182v795h-141z" />
<glyph unicode="&#xfb04;" horiz-adv-x="1726" d="M1405 0v1346h183v-1346h-183zM660 795v141h141v63q0 94 41 169t106.5 118t134 67.5t136.5 28.5l47 -153q-283 -31 -283 -215v-78h213v-141h-213v-795h-182v795h-141zM27 795v141h141v63q0 94 41 169t106.5 118t134 67.5t136.5 28.5l47 -153q-283 -31 -283 -215v-78h213 v-141h-213v-795h-182v795h-141z" />
<glyph horiz-adv-x="491" />
</font>
</defs>
</svg>
